<?xml version="1.0" standalone="no"?>
<!DOCTYPE svg PUBLIC "-//W3C//DTD SVG 1.1//EN" "http://www.w3.org/Graphics/SVG/1.1/DTD/svg11.dtd" >
<svg>
<metadata>
Created by FontForge 20090622 at Mon May  8 12:53:43 2017
 By deploy user
Copyright (c) 2011 by Atila Milanio. All rights reserved.
</metadata>
<defs>
<font id="Xilosa" horiz-adv-x="833" >
  <font-face 
    font-family="Xilosa"
    font-weight="400"
    font-stretch="normal"
    units-per-em="1000"
    panose-1="2 0 0 0 0 0 0 0 0 0"
    ascent="750"
    descent="-250"
    x-height="433"
    cap-height="680"
    bbox="2 -225 1669 917.241"
    underline-thickness="50"
    underline-position="-50"
    unicode-range="U+0020-U+2264"
  />
<missing-glyph horiz-adv-x="500" 
 />
    <glyph glyph-name=".notdef" horiz-adv-x="500" 
 />
    <glyph glyph-name=".null" horiz-adv-x="0" 
 />
    <glyph glyph-name="nonmarkingreturn" horiz-adv-x="500" 
 />
    <glyph glyph-name="space" unicode=" " horiz-adv-x="242" 
 />
    <glyph glyph-name="space" unicode="&#xa0;" horiz-adv-x="242" 
 />
    <glyph glyph-name="N" unicode="N" horiz-adv-x="607" 
d="M443 29l-244 371l-26 -377h-57l-63 656h164l208 -422l30 396l58 7l38 -624z" />
    <glyph glyph-name="A" unicode="A" horiz-adv-x="541" 
d="M453 662l31 -626l-55 -13l-67 200l-182 -18l-42 -169l-42 5l-42 639zM180 327l164 -7l-55 228l-62 -6z" />
    <glyph glyph-name="a" unicode="a" horiz-adv-x="496" 
d="M444 100l3 -1l-5 -63l-59 2l-346 -9l-4 273l252 -17v83l-173 -7l-5 68l251 47l40 -358zM285 210h-169l14 -108l148 -5z" />
    <glyph glyph-name="S" unicode="S" horiz-adv-x="497" 
d="M167 561l19 -186l246 21l13 -367l-380 -6l6 57l235 51l12 139l-241 -20l-24 430l341 -6l-6 -89l-221 -24v0z" />
    <glyph glyph-name="s" unicode="s" horiz-adv-x="466" 
d="M145 261l258 32l24 -253l-351 -23l-3 67l247 41l-2 63l-254 -21l-25 267l296 9v-66l-212 -32z" />
    <glyph glyph-name="B" unicode="B" horiz-adv-x="582" 
d="M374 394l169 -81l-61 -296l-386 16l-40 647l393 -6zM333 573l-195 -21l46 -138h86zM374 103l54 156l-259 33l45 -184z" />
    <glyph glyph-name="o" unicode="o" horiz-adv-x="459" 
d="M422 433l-40 -419l-311 11v1l-43 407h394zM336 332l-220 15l38 -241l147 -19z" />
    <glyph glyph-name="C" unicode="C" horiz-adv-x="496" 
d="M460 640l-14 -87l-275 -15l41 -389l238 4v-81l-330 -49l-73 657l413 -40v0z" />
    <glyph glyph-name="c" unicode="c" horiz-adv-x="452" 
d="M408 47l-316 -48l-57 455l365 -28l-3 -70l-258 -5l36 -252l227 14l6 -66v0z" />
    <glyph glyph-name="E" unicode="E" horiz-adv-x="484" 
d="M419 586l-222 -15l-24 -171l246 -18v-69l-226 -30l22 -154l212 -5l5 -76l-339 -25l-38 657l379 -7z" />
    <glyph glyph-name="n" unicode="n" horiz-adv-x="519" 
d="M117 13l-69 441l115 15l6 -56l304 26l-28 -426l-77 3l-3 318l-187 -28l10 -286l-71 -7v0z" />
    <glyph glyph-name="R" unicode="R" horiz-adv-x="577" 
d="M534 655l-137 -352l100 -255l-37 -18l-244 210l-58 -201l-70 4l-30 637zM292 381l85 178l-204 -18l30 -165z" />
    <glyph glyph-name="D" unicode="D" horiz-adv-x="547" 
d="M59 729v0l473 -237l-25 -298l-418 -213zM165 557l42 -410l192 131l11 145z" />
    <glyph glyph-name="F" unicode="F" horiz-adv-x="474" 
d="M186 321l230 -24v-70l-237 -30l-43 -174h-61l-13 658l404 -19l-19 -92l-211 -6z" />
    <glyph glyph-name="I" unicode="I" horiz-adv-x="225" 
d="M66 674l85 6l37 -656l-128 6l6 644v0z" />
    <glyph glyph-name="G" unicode="G" horiz-adv-x="597" 
d="M509 671v-81l-297 -43l27 -411l149 14l50 145l-128 21l-11 70h250l-54 -350l-377 -14l-67 659l458 -10v0z" />
    <glyph glyph-name="H" unicode="H" horiz-adv-x="554" 
d="M471 663l24 -636l-55 1l-67 243l-189 -18l-23 -210l-69 -3l-36 640l93 -6l49 -298l144 -6l44 299z" />
    <glyph glyph-name="J" unicode="J" horiz-adv-x="426" 
d="M328 678l77 -1l-34 -571l-193 -115l-176 246l54 39l140 -136l59 31l73 507v0z" />
    <glyph glyph-name="M" unicode="M" horiz-adv-x="744" 
d="M359 27l-158 374l-25 -380h-58l-63 659h165l177 -419l77 407l157 12l58 -634h-78l-71 419l-80 -425z" />
    <glyph glyph-name="P" unicode="P" horiz-adv-x="546" 
d="M58 680l478 -47l-175 -414l-157 12l-58 -204l-53 5zM309 345l69 177h-216l31 -169z" />
    <glyph glyph-name="Q" unicode="Q" horiz-adv-x="575" 
d="M47 667l485 12l-68 -603l-112 -13v-69l-93 -18v80l-150 -12zM383 194l34 344l-258 -21l50 -355h6v0l44 7v74l93 -12v-43l25 6h6z" />
    <glyph glyph-name="U" unicode="U" horiz-adv-x="528" 
d="M436 676l36 -652l-388 18l-25 637l78 1l69 -499l119 -21l18 516h93z" />
    <glyph glyph-name="T" unicode="T" horiz-adv-x="454" 
d="M188 559l-154 -12l19 130l368 -3v-94l-133 -13l13 -541h-156l43 533v0z" />
    <glyph glyph-name="L" unicode="L" horiz-adv-x="391" 
d="M74 679v0h121l-40 -534l200 -22l1 -80l-294 -24z" />
    <glyph glyph-name="X" unicode="X" horiz-adv-x="616" 
d="M446 24l-149 209l-125 -195l-127 -7l183 292l-143 351l84 7l148 -234l129 227l72 -6l-137 -344l192 -300h-127z" />
    <glyph glyph-name="V" unicode="V" horiz-adv-x="526" 
d="M504 682l-166 -647l-191 6l-119 638l74 10l132 -495h25l176 493z" />
    <glyph glyph-name="Y" unicode="Y" horiz-adv-x="437" 
d="M296 34l-155 -13l20 265l-129 392l84 -12l115 -214l126 192l61 -14l-167 -338l45 -258v0z" />
    <glyph glyph-name="W" unicode="W" horiz-adv-x="799" 
d="M449 647l146 -395l66 422l84 -9l-77 -644l-139 13l-125 429l-93 -435l-157 -7l-104 649l77 10l99 -475l112 442h111z" />
    <glyph glyph-name="Z" unicode="Z" horiz-adv-x="501" 
d="M286 564l-195 20v89l329 7l19 -116l-262 -434l277 4v-77l-401 -33v110z" />
    <glyph glyph-name="K" unicode="K" horiz-adv-x="505" 
d="M363 364l110 -141l-46 -196h-67l-24 155l-74 69l-31 3l-76 -230l-62 5l-33 648l86 -3l68 -234l51 4l123 223l72 -19l-97 -284v0z" />
    <glyph glyph-name="b" unicode="b" horiz-adv-x="486" 
d="M133 412l308 25l-27 -411l-335 -9l-47 640l67 6zM164 112l173 -4l-2 227l-188 -19z" />
    <glyph glyph-name="comma" unicode="," horiz-adv-x="262" 
d="M109 152h145l-162 -204l-58 32z" />
    <glyph glyph-name="e" unicode="e" horiz-adv-x="468" 
d="M80 14l-41 421l383 12l-3 -272l-258 6l-1 -85l203 -7l5 -48zM167 251l161 7l-17 107l-139 4z" />
    <glyph glyph-name="f" unicode="f" horiz-adv-x="394" 
d="M180 16l-35 256l-84 -13l-11 103l78 6l-28 219l188 83l26 -52l-100 -71l16 -171l131 1l5 -60l-128 -32l9 -262l-67 -7v0z" />
    <glyph glyph-name="g" unicode="g" horiz-adv-x="501" 
d="M106 34l-55 425l401 -26l-17 -557l-305 -6l-5 66l218 21l14 73zM353 344l-203 6l43 -224l152 -2z" />
    <glyph glyph-name="h" unicode="h" horiz-adv-x="487" 
d="M79 10l-62 710l84 5l46 -334l301 36l-29 -408l-81 3l-3 285l-177 -33l12 -257l-91 -7v0z" />
    <glyph glyph-name="i" unicode="i" horiz-adv-x="218" 
d="M156 423l-7 -410l-101 4l44 407l64 -1v0zM170 475h-82l-5 96l95 -6l-8 -90v0z" />
    <glyph glyph-name="j" unicode="j" horiz-adv-x="396" 
d="M174 455l-4 -86l65 -22l-23 -380l-154 15l-12 -77l234 -47l66 592l-172 5v0zM336 504h-87l-4 103l99 -6l-8 -97v0z" />
    <glyph glyph-name="k" unicode="k" horiz-adv-x="439" 
d="M59 24l-22 644l68 3l38 -254l209 170l42 -29l-181 -216l182 -82l-7 -222l-66 1l-34 148l-123 59l-20 -217l-86 -5v0z" />
    <glyph glyph-name="l" unicode="l" horiz-adv-x="219" 
d="M124 654l47 -626l-103 -9l-8 630l64 5v0z" />
    <glyph glyph-name="m" unicode="m" horiz-adv-x="682" 
d="M407 405l245 24l-30 -407l-84 3l2 305l-142 -33l-18 -275l-75 3l-3 305l-145 -38l10 -263l-69 -7l-69 426l113 16l4 -52l260 34l1 -41v0z" />
    <glyph glyph-name="p" unicode="p" horiz-adv-x="475" 
d="M148 32l-4 -251l-67 -1l-23 640l418 7l-68 -388zM156 128l161 -4l48 199l-215 -11z" />
    <glyph glyph-name="q" unicode="q" horiz-adv-x="509" 
d="M74 35l71 406l333 -26l-23 -640l-67 1l-4 251zM383 329l-173 22l-22 -225l188 -3z" />
    <glyph glyph-name="r" unicode="r" horiz-adv-x="455" 
d="M135 8l-71 446l126 13l3 -37l218 9l9 -74l-221 -45l16 -304l-80 -8v0z" />
    <glyph glyph-name="t" unicode="t" horiz-adv-x="393" 
d="M149 28l-19 369l-98 -7l-6 98h94l-12 176l113 -7v-166l136 -10l2 -54l-136 -24l3 -374z" />
    <glyph glyph-name="Iacute" unicode="&#xcd;" horiz-adv-x="224" 
d="M148.46 917.241l74.165 -79.6387l-116.111 -108.359l-21.8848 46.999zM66.5156 679.171l85.6641 6.05469l37.2891 -662.006l-129 6.05469l6.04688 649.896v0z" />
    <glyph glyph-name="Uacute" unicode="&#xda;" horiz-adv-x="500" 
d="M419 676h-93l-18 -516l-119 21l-69 499l-78 -1l25 -637l388 -18zM264 884l114 -77l-178 -103l-33 45z" />
    <glyph glyph-name="zero" unicode="0" horiz-adv-x="541" 
d="M53 654v0l441 28l-68 -628l-325 -25zM207 144v0l119 15l43 393l-196 -10z" />
    <glyph glyph-name="one" unicode="1" horiz-adv-x="256" 
d="M211 20l-124 6v458h-74l80 187v6v0v0v0h78z" />
    <glyph glyph-name="two" unicode="2" horiz-adv-x="500" 
d="M329 569v0l-222 19l-6 89l348 6l-32 -437l-234 25l6 -139l241 -51v-57l-380 7l19 354l241 6z" />
    <glyph glyph-name="three" unicode="3" horiz-adv-x="483" 
d="M287 554l-234 13l-11 86l387 30l-43 -664l-319 6l6 73l181 24l25 160l-191 18l-7 78l206 25v151v0z" />
    <glyph glyph-name="four" unicode="4" horiz-adv-x="498" 
d="M363 683l90 -12l-87 -646l-85 6l-14 216l-206 11l-34 425h77l75 -311l95 -11z" />
    <glyph glyph-name="five" unicode="5" horiz-adv-x="523" 
d="M186 562l20 -176l255 -7l15 -254l-83 -100l-314 -5v66l255 41l7 139l-248 -26l-34 435l369 -7l-8 -87l-234 -19v0z" />
    <glyph glyph-name="nine" unicode="9" horiz-adv-x="516" 
d="M430 35l-332 13l6 95l215 -14l-18 155l-211 6l-46 342l413 28zM341 551l-177 -8l31 -151l119 3z" />
    <glyph glyph-name="six" unicode="6" horiz-adv-x="550" 
d="M60 20l28 652l338 -32l-6 -92l-226 15l18 -174l212 -6l96 -314zM206 278l-17 -148l171 18l-41 133z" />
    <glyph glyph-name="seven" unicode="7" horiz-adv-x="425" 
d="M297 24l-94 6l33 528l-219 -16l-4 96l370 34z" />
    <glyph glyph-name="eight" unicode="8" horiz-adv-x="564" 
d="M409 419l106 -103l-37 -289l-367 7l-50 284l57 83l-69 259l410 20zM360 578l-205 1l49 -141h106zM366 127l33 168l-232 6l50 -181z" />
    <glyph glyph-name="O" unicode="O" horiz-adv-x="585" 
d="M52 680v0h484l-68 -627l-354 -25zM220 146v0l168 25l43 382l-267 -20z" />
    <glyph glyph-name="at" unicode="@" horiz-adv-x="850" 
d="M205 545l-35 -443l527 -19l-2 -58l-536 -23l-107 107l76 510l537 36l120 -106l10 -439l-553 35l82 354l244 -41l20 -256l110 -6l-36 356zM497 217l-11 153l-89 28l-40 -168z" />
    <glyph glyph-name="grave" unicode="`" horiz-adv-x="265" 
d="M236 563l-36 -36l-191 83l122 61z" />
    <glyph glyph-name="acute" unicode="&#xb4;" horiz-adv-x="265" 
d="M134 675l122 -61l-191 -83l-36 36z" />
    <glyph glyph-name="period" unicode="." horiz-adv-x="237" 
d="M55 132h143l-37 -106h-90z" />
    <glyph glyph-name="Atilde" unicode="&#xc3;" horiz-adv-x="522" 
d="M439 662h-399l42 -621l42 -5l42 169l182 18l67 -200l55 13zM166 327l47 215l62 6l55 -228zM116 826l189 3l95 64l29 -96l-105 -68l-216 32z" />
    <glyph glyph-name="Otilde" unicode="&#xd5;" horiz-adv-x="590" 
d="M122.131 826.524l211.38 3.09082l106.249 65.9531l32.4336 -98.9297l-117.434 -70.0742l-241.576 32.9766zM61.3555 678.62v0h478.004l-67.1582 -618.352l-349.613 -24.6553zM227.274 151.986v0l165.918 24.6553l42.4678 376.73l-263.692 -19.7246z" />
    <glyph glyph-name="Igrave" unicode="&#xcc;" horiz-adv-x="224" 
 />
    <glyph glyph-name="tilde" unicode="&#x2dc;" horiz-adv-x="377" 
d="M18 607l189 3l95 64l29 -96l-105 -68l-216 32z" />
    <glyph glyph-name="otilde" unicode="&#xf5;" horiz-adv-x="486" 
d="M438 433l-40 -419l-311 11v1l-43 407h394zM352 332l-220 15l38 -241l147 -19zM142 597l189 3l95 64l29 -96l-105 -68l-216 32z" />
    <glyph glyph-name="agrave" unicode="&#xe0;" horiz-adv-x="480" 
d="M327 549l-36 -36l-191 83l122 61zM450 100l3 -1l-5 -63l-59 2l-346 -9l-4 273l252 -17v83l-173 -7l-5 68l251 47l40 -358zM291 210h-169l14 -108l148 -5z" />
    <glyph glyph-name="Agrave" unicode="&#xc0;" horiz-adv-x="527" 
d="M331 738l-36 -36l-191 83l122 61zM453 662l31 -626l-55 -13l-67 200l-182 -18l-42 -169l-42 5l-42 639zM180 327l164 -7l-55 228l-62 -6z" />
    <glyph glyph-name="oacute" unicode="&#xf3;" horiz-adv-x="486" 
d="M438 433l-40 -419l-311 11v1l-43 407h394zM352 332l-220 15l38 -241l147 -19zM315 650l122 -61l-191 -83l-36 36z" />
    <glyph glyph-name="Oacute" unicode="&#xd3;" horiz-adv-x="590" 
d="M354 873l122 -61l-191 -83l-36 36zM61.3555 678.62v0h478.004l-67.1582 -618.352l-349.613 -24.6553zM227.274 151.986v0l165.918 24.6553l42.4678 376.73l-263.692 -19.7246z" />
    <glyph glyph-name="aacute" unicode="&#xe1;" horiz-adv-x="482" 
d="M450 100l3 -1l-5 -63l-59 2l-346 -9l-4 273l252 -17v83l-173 -7l-5 68l251 47l40 -358zM291 210h-169l14 -108l148 -5zM312.411 653.206l121.464 -58.0361l-190.16 -78.9678l-35.8418 34.251z" />
    <glyph glyph-name="Aacute" unicode="&#xc1;" horiz-adv-x="527" 
d="M312.411 853.206l121.464 -58.0361l-190.16 -78.9678l-35.8418 34.251zM453 662l31 -626l-55 -13l-67 200l-182 -18l-42 -169l-42 5l-42 639zM180 327l164 -7l-55 228l-62 -6z" />
    <glyph glyph-name="eacute" unicode="&#xe9;" horiz-adv-x="461" 
d="M73.9961 14.1758l-41.5107 426.294l387.769 12.1504l-3.03711 -275.42l-261.212 6.0752l-1.0127 -86.0684l205.527 -7.08789l5.0625 -48.6035zM162.079 254.156l163.005 7.08789l-17.2119 108.345l-140.73 4.05078zM244.739 642.116l114.479 -56.7637l-179.226 -77.2344
l-33.7812 33.499z" />
    <glyph glyph-name="Eacute" unicode="&#xc9;" horiz-adv-x="486" 
d="M244.739 843.116l114.479 -56.7637l-179.226 -77.2344l-33.7812 33.499zM416 586.572l-222 -15.0146l-24 -171.167l246 -18.0176v-69.0674l-226 -30.0293l22 -154.15l212 -5.00488l5 -76.0742l-339 -25.0244l-38 657.642l379 -7.00684z" />
    <glyph glyph-name="atilde" unicode="&#xe3;" horiz-adv-x="486" 
d="M88 615l189 3l95 64l29 -96l-105 -68l-216 32zM450 100l3 -1l-5 -63l-59 2l-346 -9l-4 273l252 -17v83l-173 -7l-5 68l251 47l40 -358zM291 210h-169l14 -108l148 -5z" />
    <glyph glyph-name="iacute" unicode="&#xed;" horiz-adv-x="270" 
d="M158 412l-5 -399l-99 4l47 400l57 -5v0zM188 643l75 -79l-116 -109l-22 47z" />
    <glyph glyph-name="u" unicode="u" horiz-adv-x="472" 
d="M396 425l31 -381l-368 -30l31 435l68 -4l9 -337l151 17l5 296z" />
    <glyph glyph-name="asciicircum" unicode="^" 
 />
    <glyph glyph-name="ucircumflex" unicode="&#xfb;" horiz-adv-x="534" 
 />
    <glyph glyph-name="Adieresis" unicode="&#xc4;" horiz-adv-x="527" 
 />
    <glyph glyph-name="circumflex" unicode="&#x2c6;" horiz-adv-x="401" 
d="M23 576l179 144l168 -146l-21 -50l-149 71l-161 -54z" />
    <glyph glyph-name="adieresis" unicode="&#xe4;" horiz-adv-x="527" 
 />
    <glyph glyph-name="acircumflex" unicode="&#xe2;" horiz-adv-x="475" 
d="M75 556l179 144l168 -146l-21 -50l-149 71l-161 -54zM450 100l3 -1l-5 -63l-59 2l-346 -9l-4 273l252 -17v83l-173 -7l-5 68l251 47l40 -358zM291 210h-169l14 -108l148 -5z" />
    <glyph glyph-name="Acircumflex" unicode="&#xc2;" horiz-adv-x="527" 
d="M86 763l179 144l168 -146l-21 -50l-149 71l-161 -54zM453 662l31 -626l-55 -13l-67 200l-182 -18l-42 -169l-42 5l-42 639zM180 327l164 -7l-55 228l-62 -6z" />
    <glyph glyph-name="ocircumflex" unicode="&#xf4;" horiz-adv-x="532" 
d="M438 433l-40 -419l-311 11v1l-43 407h394zM352 332l-220 15l38 -241l147 -19zM91 559l179 144l168 -146l-21 -50l-149 71l-161 -54z" />
    <glyph glyph-name="Ocircumflex" unicode="&#xd4;" horiz-adv-x="590" 
d="M133 758l179 144l168 -146l-21 -50l-149 71l-161 -54zM61.3555 678.62v0h478.004l-67.1582 -618.352l-349.613 -24.6553zM227.274 151.986v0l165.918 24.6553l42.4678 376.73l-263.692 -19.7246z" />
    <glyph glyph-name="ecircumflex" unicode="&#xea;" horiz-adv-x="466" 
d="M73 14l-41 421l383 12l-3 -272l-258 6l-1 -85l203 -7l5 -48zM160 251l161 7l-17 107l-139 4zM33 556l179 144l168 -146l-21 -50l-149 71l-161 -54z" />
    <glyph glyph-name="Ecircumflex" unicode="&#xca;" horiz-adv-x="486" 
d="M407 586.572l-222 -15.0146l-24 -171.167l246 -18.0176v-69.0674l-226 -30.0293l22 -154.15l212 -5.00488l5 -76.0742l-339 -25.0244l-38 657.642l379 -7.00684zM56 762l179 144l168 -146l-21 -50l-149 71l-161 -54z" />
    <glyph glyph-name="v" unicode="v" horiz-adv-x="532" 
d="M502 452l-164 -419l-133 2l-175 395l61 23l176 -287h22l141 302z" />
    <glyph glyph-name="w" unicode="w" horiz-adv-x="686" 
d="M99 3l-58 462l66 -9l93 -357l86 15l37 318l73 -4l11 -314l83 5l122 338l63 4l-105 -439z" />
    <glyph glyph-name="ccedilla" unicode="&#xe7;" horiz-adv-x="442" 
d="M300 43l-5 -79l-72 -7l-18 71l-113 -17l-57 455l365 -28l-3 -70l-258 -5l36 -252l227 14l6 -66z" />
    <glyph glyph-name="Ccedilla" unicode="&#xc7;" horiz-adv-x="488" 
d="M456 640l-14 -87l-275 -15l41 -389l238 4v-81l-106 -14l-6 -90l-80 -8l-22 84l-116 -21l-73 657l413 -40v0z" />
    <glyph glyph-name="exclam" unicode="!" horiz-adv-x="257" 
d="M55 125h143l-37 -106h-90zM52 715h171l-64 -527h-68z" />
    <glyph glyph-name="x" unicode="x" horiz-adv-x="541" 
d="M390 14l-142 131l-126 -131l-100 1l156 227l-138 220l95 6l143 -166l159 174l71 -31l-163 -218l144 -210z" />
    <glyph glyph-name="y" unicode="y" horiz-adv-x="484" 
d="M84 432l150 -259l186 301l53 -19l-153 -407l-245 -266l-49 35l142 230l-138 358z" />
    <glyph glyph-name="z" unicode="z" horiz-adv-x="450" 
d="M267 365l-185 22l3 70l303 -2l24 -100l-226 -226l220 -8v-78l-350 -17l6 92z" />
    <glyph glyph-name="question" unicode="?" horiz-adv-x="557" 
d="M203 108h143l-37 -106h-90zM323 169q-1 -1 -11.5 -1.5t-23.5 -1.5q-15 -1 -33 -2l142 249l-55 161l-158 -27l15 -211l-49 -10l-131 316l454 77l54 -317l-102 -116l-38 -42.5l-32 -37.5z" />
    <glyph glyph-name="exclamdown" unicode="&#xa1;" horiz-adv-x="276" 
d="M55 609.054h143l-37 105.954h-90zM52 19.3057h171l-64 526.774h-68z" />
    <glyph glyph-name="questiondown" unicode="&#xbf;" horiz-adv-x="486" 
d="M357.013 397.007h-142.991l36.9971 105.993h89.9951zM237.02 336.011q1 0.999023 11.499 1.49902q10.5 0.5 23.499 1.5q14.999 1 32.998 2l-141.991 -248.984l54.9961 -160.99l157.991 26.998l-15 210.987l48.9971 9.99902l130.992 -315.98l-453.972 -76.9951
l-53.9971 316.98l101.994 115.993l37.9971 42.4971l31.998 37.498z" />
    <glyph glyph-name="Ntilde" unicode="&#xd1;" horiz-adv-x="608" 
d="M443 29l-244 371l-26 -377h-57l-63 656h164l208 -422l30 396l58 7l38 -624zM127.3 845.819l213.144 3.07324l107.136 65.5625l32.7051 -98.3438l-118.413 -69.6602l-243.594 32.7812z" />
    <glyph glyph-name="ntilde" unicode="&#xf1;" horiz-adv-x="608" 
d="M128 13l-69 441l115 15l6 -56l304 26l-28 -426l-77 3l-3 318l-187 -28l10 -286l-71 -7v0zM127.3 629.819l213.144 3.07324l107.136 65.5625l32.7051 -98.3438l-118.413 -69.6602l-243.594 32.7812z" />
    <glyph glyph-name="udieresis" unicode="&#xfc;" horiz-adv-x="493" 
d="M86 627l129 15l-22 -98l-82 -9zM282 635l127 -13l-42 -89l-80 8zM391 441l31 -381l-368 -30l31 435l68 -4l9 -337l151 17l5 296l73 4v0z" />
    <glyph glyph-name="onesuperior" unicode="&#xb9;" horiz-adv-x="251" 
d="M183.533 331.532l-81.4131 3.15918v241.188h-48.585l52.5244 98.4766v3.15918v0v0v0h51.2109z" />
    <glyph glyph-name="parenleft" unicode="(" horiz-adv-x="340" 
d="M199 -96l-180 361l-5 129l210 405l76 -35l-158 -429l128 -395z" />
    <glyph glyph-name="parenright" unicode=")" horiz-adv-x="340" 
d="M70 -60l128 395l-158 429l76 35l210 -405l-5 -129l-180 -361z" />
    <glyph glyph-name="colon" unicode=":" horiz-adv-x="240" 
d="M51 132h143l-37 -106h-90zM55 447h143l-27 -106h-90z" />
    <glyph glyph-name="semicolon" unicode=";" horiz-adv-x="263" 
d="M93 447h143l-27 -106h-90zM101 152h145l-162 -204l-58 32z" />
    <glyph glyph-name="hyphen" unicode="-" horiz-adv-x="498" 
d="M417 334l20 -117l-395 31l-4 86h379z" />
    <glyph glyph-name="plus" unicode="+" horiz-adv-x="505" 
d="M488 341l2 -81l-175 -28l2 -160l-106 -3l-19 167l-179 19l10 82l166 23l30 164h72l33 -163z" />
    <glyph glyph-name="d" unicode="d" horiz-adv-x="470" 
d="M335 432l9 251h67l12 -641l-334 -20l-64 407zM326 336h-188l18 -225l173 19z" />
    <glyph glyph-name="asterisk" unicode="*" horiz-adv-x="454" 
d="M269 275l-56 -3l-23 130l-130 -81l-20 51l91 96l-102 83l34 54l118 -66l10 133l53 3l21 -122l104 81l41 -29l-109 -126l123 -117l-37 -40l-112 77l-6 -124v0z" />
    <glyph glyph-name="dollar" unicode="$" horiz-adv-x="376" 
d="M327 342l10 -273l-106 3l-14 -59l-44 1l-13 52l-104 -2l5 74l87 10l6 94l-89 -9l-18 317l97 -5l14 48l45 2l4 -48h93l-4 -97l-80 -10l7 -108zM115 433l13 -108l32 2l-10 109zM263 244l-40 -1l-3 -93h50z" />
    <glyph glyph-name="divide" unicode="&#xf7;" horiz-adv-x="476" 
d="M437 356l23 -98l-442 26l-4 72h423zM169 210h143l-37 -106h-90zM173 525h143l-27 -106h-90z" />
    <glyph glyph-name="quotedbl" unicode="&#x22;" horiz-adv-x="398" 
d="M238 704l95 23l-17 -311l-72 -4zM159 400l-76 -2l-31 309l98 -18z" />
    <glyph glyph-name="quoteleft" unicode="&#x2018;" 
 />
    <glyph glyph-name="equal" unicode="=" horiz-adv-x="570" 
d="M482 261l24 -118l-462 31l-5 87h443v0zM482 377h-443l5 87l462 31z" />
    <glyph glyph-name="hungarumlaut" unicode="&#x2dd;" horiz-adv-x="572" 
d="M152 675l122 -61l-191 -83l-36 36zM417 675l122 -61l-191 -83l-36 36z" />
    <glyph glyph-name="quotedblright" unicode="&#x201d;" 
 />
    <glyph glyph-name="asciitilde" unicode="~" 
 />
    <glyph glyph-name="registered" unicode="&#xae;" 
 />
    <glyph glyph-name="germandbls" unicode="&#xdf;" 
 />
    <glyph glyph-name="lessequal" unicode="&#x2264;" horiz-adv-x="242" 
 />
    <glyph glyph-name="less" unicode="&#x3c;" horiz-adv-x="1541" 
d="M396 529l107 -94l17 -39l-12 -130l-22 4l-11 131l-101 108zM569 612l102 -129l3 -45l-33 -138l-32 5l21 151l-83 138zM740 625l31 8l70 -167l-2 -47l-79 -141l-31 15l64 153zM1033 405l-18 -63l-133 -156l-33 24l114 182l-22 235l47 6zM30 318l239 48l76 -118l-96 -195z
M1217 630l275 -360l-130 -225l-406 -7zM1225 100l116 52l-64 34l-73 -59zM1331 266l34 -18l34 34l-61 36zM323 340l58 42l53 -21l-92 -43z" />
    <glyph glyph-name="greater" unicode="&#x3e;" horiz-adv-x="1540" 
d="M395 142l-22 20l101 108l11 131l22 4l12 -130l-17 -39zM568 59l-22 18l83 138l-21 151l32 5l33 -138l-3 -45zM739 46l53 179l-64 153l31 15l79 -141l2 -47l-70 -167zM1032 266l-45 -228l-47 6l22 235l-114 182l33 24l133 -156zM29 353l219 265l96 -195l-76 -118zM1216 41
l-261 592l406 -7l130 -225zM1224 571l-21 -27l73 -59l64 34zM1330 405l7 -52l61 36l-34 34zM322 331l19 22l92 -43l-53 -21z" />
    <glyph glyph-name="ampersand" unicode="&#x26;" horiz-adv-x="1700" 
d="M866 296l-672 -259l-79 147l736 646l740 -592l-79 -216zM1254 318l41 -47l-51 -38v-25l73 25l-5 -67h25l16 58l47 -53l19 17l-46 67l63 45l-17 22l-55 -26l5 57l-27 5l-15 -62l-51 42zM743 571l-21 -32l62 -45l-53 -62l17 -27l71 47l21 -73h32v73l67 -43l21 28l-74 66
l63 78l-26 14l-62 -52l-10 75l-36 -7v-77zM276 271v-26l51 -16l-14 -58l14 -15l37 57l36 -47l20 10l-20 53l57 -11l10 20l-72 28l21 66l-21 6l-25 -53l-33 47l-19 -10l19 -56zM1074 167l263 -108v-70l-952 28l-6 52l288 100zM643 37l21 67h-88l11 -67h56zM936 120l-101 -10
l20 -67l67 4zM1162 81l-88 16l-4 -59l58 -14zM96 -118l98 135l41 -20l-114 -131zM121 69l36 -32l-97 -135l-33 20zM1575 59l94 -146l-27 -20l-97 129zM1471 -25l41 22l101 -137l-32 -20z" />
    <glyph glyph-name="uacute" unicode="&#xfa;" horiz-adv-x="468" 
d="M395 441l31 -381l-368 -30l31 435l68 -4l9 -337l151 17l5 296zM316 655l122 -61l-191 -83l-36 36z" />
    <glyph glyph-name="quotesingle" unicode="'" horiz-adv-x="200" 
d="M137 397l-74 7l3 309l98 -25z" />
    <glyph glyph-name="egrave" unicode="&#xe8;" horiz-adv-x="489" 
d="M318 547l-36 -36l-191 83l122 61zM98.9961 14.1758l-41.5107 426.294l387.769 12.1504l-3.03711 -275.42l-261.212 6.0752l-1.0127 -86.0684l205.527 -7.08789l5.0625 -48.6035zM187.079 254.156l163.005 7.08789l-17.2119 108.345l-140.73 4.05078z" />
    <glyph glyph-name="Egrave" unicode="&#xc8;" horiz-adv-x="473" 
d="M308 752l-36 -36l-191 83l122 61zM416 586.572l-222 -15.0146l-24 -171.167l246 -18.0176v-69.0674l-226 -30.0293l22 -154.15l212 -5.00488l5 -76.0742l-339 -25.0244l-38 657.642l379 -7.00684z" />
    <glyph glyph-name="dieresis" unicode="&#xa8;" horiz-adv-x="511" 
d="M68 625l139 15l-24 -105l-88 -10zM326 634l136 -15l-45 -96l-87 9z" />
    <glyph glyph-name="Udieresis" unicode="&#xdc;" horiz-adv-x="527" 
d="M436 676l36 -652l-388 18l-25 637l78 1l69 -499l119 -21l18 516h93zM96 837l129 15l-22 -98l-82 -9zM292 845l127 -13l-42 -89l-80 8z" />
    <glyph glyph-name="quotedblleft" unicode="&#x201c;" horiz-adv-x="393" 
d="M238 674l95 23l-17 -371l-72 -4zM159 310l-76 -2l-31 369l98 -18z" />
    <glyph glyph-name="edieresis" unicode="&#xeb;" horiz-adv-x="457" 
d="M56 627l129 15l-22 -98l-82 -9zM252 635l127 -13l-42 -89l-80 8zM68 14l288 27l-5 48l-203 7l1 85l258 -6l3 272l-383 -12l41 -421v0zM155 251l5 118l139 -4l17 -107l-161 -7v0z" />
    <glyph glyph-name="ordfeminine" unicode="&#xaa;" horiz-adv-x="250" 
d="M227 439h1l-2 -32l-30 1l-170 -5l-3 135l125 -7v40l-85 -3l-3 34l124 23l20 -177zM64 494l7 -54l73 -2l4 56h-84zM228 355l10 -45l-211 11l-2 34h203z" />
    <glyph glyph-name="ordmasculine" unicode="&#xba;" horiz-adv-x="240" 
d="M218 603l-21 -208l-153 5v1l-21 202h195zM176 553l-110 6l19 -118l73 -10zM228 355l10 -45l-211 11l-2 34h203z" />
    <glyph glyph-name="_7" horiz-adv-x="500" 
 />
    <glyph glyph-name="numbersign" unicode="#" horiz-adv-x="728" 
d="M690 250l-7 -96h-180l-5 -160l-61 -2l-5 165h-128l8 -168l-97 5l4 163l-156 4l-5 62l161 7v130l-165 -14l4 97l161 4l3 168l62 3l8 -168l140 3l-3 169l96 -11l-7 -158l158 7l7 -65l-168 -14l-7 -139zM300 233l132 6v136l-137 -12z" />
    <glyph glyph-name="percent" unicode="%" horiz-adv-x="547" 
d="M454 557l-302 -535l-74 55l321 511l55 -31v0zM85 604l197 -24l-74 -196l-144 19l21 201v0zM120 444l54 -4l43 92l-87 11l-10 -99v0zM461 19l-192 29l75 190l144 -16l-27 -203v0zM431 180l-55 3l-43 -91l87 -15l11 103v0z" />
    <glyph glyph-name="slash" unicode="/" 
 />
    <glyph glyph-name="backslash" unicode="\" 
 />
    <glyph glyph-name="bar" unicode="|" 
 />
    </font>
</defs>
</svg>
